<?xml version="1.0" standalone="no"?>
<!DOCTYPE svg PUBLIC "-//W3C//DTD SVG 1.1//EN" "http://www.w3.org/Graphics/SVG/1.1/DTD/svg11.dtd" >
<svg xmlns="http://www.w3.org/2000/svg">
<metadata>Generated by IcoMoon</metadata>
<defs>
<font id="online-design" horiz-adv-x="1024">
<font-face units-per-em="1024" ascent="960" descent="-64" />
<missing-glyph horiz-adv-x="1024" />
<glyph unicode="&#x20;" horiz-adv-x="512" d="" />
<glyph unicode="&#xe900;" glyph-name="box" d="M983.458 734.058l-464.936 224.452c-4.122 1.988-8.922 1.988-13.042 0l-464.938-224.452c-5.184-2.502-8.478-7.752-8.478-13.508v-545.098c0-5.756 3.294-11.006 8.478-13.508l464.936-224.452c2.060-0.994 4.292-1.492 6.522-1.492s4.46 0.498 6.522 1.492l464.936 224.452c5.184 2.502 8.478 7.752 8.478 13.508v545.096c0 5.76-3.296 11.006-8.478 13.51zM512 928.344l430.434-207.794-124.774-60.236c-0.79 0.602-1.624 1.158-2.54 1.6l-427.51 206.38 124.39 60.050zM353.734 851.334l429.808-207.492-88.030-42.498-429.63 207.408 87.852 42.582zM793.598 615.386v-157.092l-82.226-39.696v157.092l82.226 39.696zM961.936 184.864l-434.936-209.964v511.784l103.746 50.084c7.46 3.602 10.588 12.568 6.986 20.030-3.602 7.458-12.568 10.59-20.030 6.986l-105.702-51.030-41.592 20.080c-7.462 3.606-16.428 0.474-20.030-6.986s-0.474-16.428 6.986-20.030l39.636-19.134v-511.784l-434.936 209.968v511.784l331.2-159.89c2.102-1.016 4.324-1.496 6.51-1.496 5.576 0 10.932 3.124 13.518 8.482 3.602 7.46 0.474 16.428-6.986 20.030l-324.74 156.772 149.010 71.936 450.588-217.526c0.066-0.092 0.14-0.174 0.208-0.264v-179.998c0-5.162 2.654-9.96 7.026-12.706 2.428-1.524 5.198-2.294 7.976-2.294 2.224 0 4.454 0.494 6.52 1.492l112.226 54.178c5.184 2.502 8.478 7.75 8.478 13.508v180.99l138.338 66.784v-511.786zM185.852 243.042l-68.23 32.938c-7.464 3.606-16.428 0.474-20.030-6.986s-0.474-16.428 6.986-20.030l68.23-32.938c2.102-1.016 4.324-1.496 6.51-1.496 5.576 0 10.932 3.124 13.518 8.482 3.604 7.462 0.476 16.426-6.984 20.030zM248.646 283.916l-130.93 63.208c-7.462 3.602-16.428 0.474-20.030-6.988-3.6-7.46-0.472-16.428 6.988-20.030l130.93-63.208c2.102-1.014 4.324-1.496 6.51-1.496 5.576 0 10.932 3.124 13.518 8.482 3.602 7.464 0.474 16.432-6.986 20.032z" />
<glyph unicode="&#xe901;" glyph-name="element" d="M997.446 781.13h-631.104v24.954c0 36.6-29.776 66.376-66.376 66.376h-103c-36.6 0-66.376-29.776-66.376-66.376v-24.954h-104.040c-14.664 0-26.55-11.89-26.55-26.552s11.886-26.55 26.55-26.55h104.036v-24.946c0-36.6 29.776-66.376 66.376-66.376h103.002c36.6 0 66.376 29.776 66.376 66.376v24.946h631.106c14.664 0 26.55 11.89 26.55 26.55 0.002 14.662-11.886 26.552-26.55 26.552zM313.242 703.082c0-7.32-5.956-13.276-13.276-13.276h-103.002c-7.32 0-13.276 5.956-13.276 13.276v103.002c0 7.32 5.956 13.276 13.276 13.276h103.002c7.32 0 13.276-5.956 13.276-13.276v-103.002zM997.45 485.41h-104.038v24.962c0 36.6-29.776 66.376-66.376 66.376h-103.002c-36.6 0-66.376-29.776-66.376-66.376v-24.962h-631.108c-14.664 0-26.55-11.888-26.55-26.55s11.886-26.55 26.55-26.55h631.106v-24.938c0-36.6 29.776-66.376 66.376-66.376h103.002c36.6 0 66.376 29.776 66.376 66.376v24.938h104.038c14.664 0 26.55 11.89 26.55 26.55 0.002 14.662-11.884 26.55-26.548 26.55zM840.31 407.37c0-7.32-5.956-13.276-13.276-13.276h-103.002c-7.32 0-13.276 5.956-13.276 13.276v103.002c0 7.32 5.956 13.276 13.276 13.276h103.002c7.32 0 13.276-5.956 13.276-13.276v-103.002zM997.45 167.972h-444.586v24.946c0 36.6-29.776 66.376-66.376 66.376h-103.002c-36.6 0-66.376-29.776-66.376-66.376v-24.946h-290.56c-14.664 0-26.55-11.89-26.55-26.55 0-14.662 11.886-26.55 26.55-26.55h290.558v-24.954c0-36.6 29.776-66.376 66.376-66.376h103.002c36.6 0 66.376 29.776 66.376 66.376v24.954h444.586c14.664 0 26.55 11.89 26.55 26.55 0.002 14.664-11.884 26.55-26.548 26.55zM499.762 89.916c0-7.32-5.956-13.276-13.276-13.276h-103.002c-7.32 0-13.276 5.956-13.276 13.276v103.002c0 7.32 5.956 13.276 13.276 13.276h103.002c7.32 0 13.276-5.956 13.276-13.276v-103.002z" />
<glyph unicode="&#xe902;" glyph-name="elements-2" d="M1011.63 656.612c-13.119 24.505-34.993 42.428-61.596 50.476-26.603 8.053-54.748 5.256-79.248-7.863-24.5-13.123-42.428-34.998-50.476-61.601-5.364-17.72-5.801-36.108-1.696-53.661l-112.352-60.162c-34.172 47.977-87.441 81.4-148.644 89.101v95.877c44.291 11.946 76.984 52.447 76.984 100.46 0 57.374-46.678 104.051-104.051 104.051s-104.056-46.678-104.056-104.056c0-48.013 32.697-88.514 76.984-100.46v-95.868c-78.17-9.839-143.434-61.641-172.432-132.106l-122.962 33.13c0.027 18.031-4.565 35.842-13.804 51.888-13.863 24.090-36.279 41.341-63.112 48.572-55.416 14.932-112.613-18.004-127.541-73.402-7.231-26.837-3.577-54.883 10.286-78.969s36.279-41.341 63.112-48.572c9.009-2.427 18.149-3.627 27.239-3.627 17.977 0 35.729 4.705 51.735 13.913 16.046 9.234 28.966 22.321 38.002 37.926l122.967-33.135c-1.326-9.659-2.071-19.497-2.071-29.517 0-49.718 16.958-95.525 45.333-132.043l-90.157-90.157c-39.762 22.845-91.46 17.409-125.403-16.525-40.569-40.569-40.569-106.582 0-147.156 20.287-20.287 46.93-30.428 73.578-30.428 26.643 0 53.291 10.141 73.578 30.428 33.938 33.942 39.374 85.641 16.525 125.398l90.157 90.157c36.518-28.376 82.321-45.333 132.043-45.333s95.525 16.958 132.043 45.333l90.157-90.157c-22.845-39.762-17.413-91.46 16.525-125.398 20.287-20.287 46.93-30.428 73.578-30.428s53.291 10.146 73.578 30.428c40.569 40.569 40.569 106.582 0 147.156-33.938 33.938-85.641 39.369-125.398 16.525l-90.157 90.157c28.376 36.518 45.333 82.321 45.333 132.043 0 27.162-5.098 53.147-14.305 77.11l112.271 60.116c12.334-13.15 27.879-22.976 45.604-28.339 9.961-3.013 20.143-4.507 30.266-4.507 16.908 0 33.658 4.168 48.983 12.374 24.505 13.119 42.428 34.993 50.476 61.596s5.247 54.753-7.872 79.253zM943.461 563.492c-11.752-6.298-25.254-7.637-38.016-3.771-12.762 3.857-23.255 12.46-29.548 24.216-6.298 11.752-7.633 25.258-3.771 38.020 3.857 12.762 12.46 23.255 24.216 29.548 7.353 3.938 15.388 5.937 23.499 5.937 4.854 0 9.74-0.717 14.517-2.161 12.762-3.857 23.255-12.46 29.548-24.216 6.298-11.752 7.633-25.254 3.771-38.016-3.857-12.771-12.46-23.264-24.216-29.557zM692.065 399.013c0-89.060-72.459-161.519-161.519-161.519s-161.519 72.459-161.519 161.519 72.459 161.519 161.519 161.519 161.519-72.459 161.519-161.519zM480.629 809.235c0 27.527 22.394 49.917 49.917 49.917s49.917-22.394 49.917-49.917c0-27.523-22.394-49.917-49.917-49.917s-49.917 22.394-49.917 49.917zM91.108 465.72c-12.875 3.469-23.625 11.747-30.275 23.3-6.654 11.558-8.404 25.010-4.935 37.885 7.159 26.58 34.61 42.374 61.186 35.215 12.875-3.469 23.625-11.743 30.279-23.3 6.65-11.558 8.4-25.010 4.931-37.885-7.159-26.58-34.601-42.374-61.186-35.215zM253.544 51.415c-19.457-19.461-51.13-19.461-70.596 0-19.461 19.461-19.461 51.13 0 70.596 9.731 9.731 22.515 14.594 35.3 14.594 12.78 0 25.565-4.868 35.296-14.594 19.461-19.466 19.461-51.135 0-70.596zM878.143 122.011c19.461-19.461 19.461-51.13 0-70.596-19.457-19.461-51.13-19.461-70.596 0-19.461 19.461-19.461 51.13 0 70.596 9.731 9.731 22.515 14.594 35.3 14.594 12.78 0 25.565-4.863 35.296-14.594z" />
<glyph unicode="&#xe903;" glyph-name="illutration" d="M192 105.376l246.624 246.624h169.376v169.376l246.624 246.624h169.376v192h-192v-169.376l-246.624-246.624h-169.376v-169.376l-246.624-246.624h-169.376v-192h192v169.376zM864 928h128v-128h-128v128zM448 512h128v-128h-128v128zM160-32h-128v128h128v-128z" />
<glyph unicode="&#xe904;" glyph-name="illutration-2" d="M944.845 94.309c-16.402 0-31.654-5.018-44.307-13.595l-265.817 265.817c22.843 27.578 36.589 62.947 36.589 101.468s-13.747 73.89-36.589 101.468l183.37 183.37c21.668-17.095 48.982-27.335 78.66-27.335 70.165 0 127.249 57.083 127.249 127.249s-57.083 127.249-127.249 127.249-127.249-57.083-127.249-127.249c0-29.678 10.24-56.991 27.335-78.66l-183.37-183.37c-27.578 22.843-62.947 36.589-101.468 36.589s-73.89-13.747-101.468-36.589l-121.535 121.535c8.577 12.651 13.595 27.902 13.595 44.307 0 43.645-35.509 79.155-79.155 79.155s-79.155-35.509-79.155-79.155 35.509-79.155 79.155-79.155c16.402 0 31.654 5.018 44.307 13.595l121.535-121.535c-22.843-27.578-36.589-62.947-36.589-101.468 0-18.506 3.206-36.269 9.034-52.807l-187.524-86.549c-17.109 25.414-46.14 42.166-79.012 42.166-52.485 0-95.186-42.701-95.186-95.186s42.701-95.186 95.186-95.186 95.186 42.701 95.186 95.186c0 8.917-1.26 17.542-3.563 25.734l187.556 86.565c27.552-47.172 78.618-78.996 137.026-79.219l10.671-117.373c-32.972-9.559-57.154-40.010-57.154-76.020 0-43.645 35.509-79.155 79.155-79.155s79.155 35.509 79.155 79.155c0 40.968-31.287 74.764-71.223 78.756l-10.669 117.373c27.057 5.058 51.739 16.937 72.143 33.838l265.817-265.817c-8.577-12.651-13.595-27.902-13.595-44.307 0-43.645 35.509-79.155 79.155-79.155s79.155 35.509 79.155 79.155-35.509 79.155-79.155 79.155zM95.186 190.497c-35.91 0-65.127 29.217-65.127 65.127s29.217 65.127 65.127 65.127c25.804 0 48.152-15.087 58.687-36.902 0.122-0.321 0.24-0.643 0.387-0.96 0.080-0.174 0.188-0.325 0.275-0.495 3.701-8.174 5.779-17.232 5.779-26.77 0-35.91-29.217-65.127-65.127-65.127zM896.751 929.941c53.591 0 97.19-43.599 97.19-97.19s-43.599-97.19-97.19-97.19-97.19 43.599-97.19 97.19 43.599 97.19 97.19 97.19zM174.341 736.564c0 27.071 22.025 49.096 49.096 49.096s49.096-22.025 49.096-49.096-22.025-49.096-49.096-49.096-49.096 22.025-49.096 49.096zM382.748 448c0 71.269 57.983 129.252 129.252 129.252s129.252-57.983 129.252-129.252-57.983-129.252-129.252-129.252-129.252 57.983-129.252 129.252zM593.159 95.311c0-27.071-22.025-49.096-49.096-49.096s-49.096 22.025-49.096 49.096 22.025 49.096 49.096 49.096 49.096-22.025 49.096-49.096zM944.845-33.941c-27.071 0-49.096 22.025-49.096 49.096s22.025 49.096 49.096 49.096 49.096-22.025 49.096-49.096-22.025-49.096-49.096-49.096zM577.127 448c0-8.3 6.729-15.029 15.029-15.029s15.029 6.729 15.029 15.029c0 52.485-42.701 95.186-95.186 95.186-8.3 0-15.029-6.729-15.029-15.029s6.729-15.029 15.029-15.029c35.91 0 65.127-29.217 65.127-65.127zM896.751 865.816c18.232 0 33.065-14.833 33.065-33.065 0-8.3 6.729-15.029 15.029-15.029s15.029 6.729 15.029 15.029c0 34.806-28.317 63.123-63.123 63.123-8.3 0-15.029-6.729-15.029-15.029s6.729-15.029 15.029-15.029zM95.186 286.685c-8.3 0-15.029-6.729-15.029-15.029s6.729-15.029 15.029-15.029c0.553 0 1.002-0.449 1.002-1.002 0-8.3 6.729-15.029 15.029-15.029s15.029 6.729 15.029 15.029c0 17.127-13.933 31.061-31.061 31.061z" />
<glyph unicode="&#xe905;" glyph-name="product" d="M1024 374.857h-438.857v-438.857h-146.286v438.857h-438.857v146.286h438.857v438.857h146.286v-438.857h438.857v-146.286z" />
<glyph unicode="&#xe906;" glyph-name="process" d="M922.904 538.022c-10.324 45.106-27.984 87.83-52.642 127.342l71.382 71.38-135.272 135.272-71.382-71.38c-39.51 24.66-82.228 42.318-127.34 52.64v101.098h-191.296v-101.096c-45.112-10.324-87.83-27.984-127.342-52.64l-71.38 71.38-135.272-135.272 71.38-71.38c-24.656-39.512-42.314-82.23-52.64-127.342h-101.1v-191.296h101.274v-405.098h821.45v405.096h101.276v191.296h-101.096zM888.968-24.616h-753.936v56.264h753.934v-56.264zM888.968 65.406h-753.936v281.32h96.718c13.334-60.508 46.214-115.512 93.672-156.152 51.882-44.432 118.144-68.902 186.578-68.902 68.432 0 134.696 24.47 186.578 68.902 47.48 40.66 80.368 95.698 93.676 156.152h96.712v-281.32zM258.814 408.616c0 139.608 113.578 253.186 253.186 253.186 139.606 0 253.186-113.578 253.186-253.186 0-14.562-1.13-28.514-3.374-41.586-9.662-58.482-39.918-112.044-85.192-150.816-45.772-39.198-104.236-60.786-164.62-60.786s-118.85 21.588-164.618 60.786c-45.276 38.772-75.53 92.334-85.192 150.818l-0.018 0.108c-2.23 12.958-3.358 26.914-3.358 41.476zM990.242 380.484h-192.668c0.876 9.128 1.37 18.51 1.37 28.132 0 158.222-128.722 286.946-286.946 286.946s-286.946-128.722-286.946-286.946c0-9.622 0.496-19.004 1.37-28.132h-192.664v123.78h94.938l2.654 13.664c9.752 50.246 29.264 97.46 57.992 140.33l7.722 11.526-66.966 66.962 87.53 87.53 66.962-66.966 11.526 7.722c42.87 28.728 90.084 48.24 140.33 57.992l13.664 2.654v94.938h123.78v-94.938l13.664-2.654c50.246-9.752 97.46-29.264 140.33-57.992l11.522-7.722 66.964 66.966 87.53-87.53-66.966-66.962 7.722-11.526c28.73-42.872 48.242-90.088 57.994-140.33l2.652-13.664h94.938v-123.78zM512 605.538c-108.584 0-196.924-88.338-196.924-196.924s88.338-196.924 196.924-196.924 196.924 88.338 196.924 196.924-88.34 196.924-196.924 196.924zM512 245.45c-89.97 0-163.164 73.194-163.164 163.164s73.194 163.166 163.164 163.166 163.164-73.194 163.164-163.164-73.194-163.166-163.164-163.166zM528.88 415.606v105.536h-33.76v-119.516l78.086-78.088 23.874 23.87zM73.142 459.252h45.010v-33.758h-45.010v33.758zM905.846 459.252h45.010v-33.758h-45.010v33.758zM489.494 875.604h45.010v-33.758h-45.010v33.758zM191.296 228.572h33.758v-123.78h-33.758v123.78zM798.946 228.572h33.758v-123.78h-33.758v123.78z" />
<glyph unicode="&#xe907;" glyph-name="title-award" d="M327.861-64c-0.587 0-1.169 0.035-1.751 0.106-0.012-0.006-0.023 0.006-0.041 0.006-0.018 0.006-0.029 0.012-0.041 0.006-0.018 0-0.035 0-0.035 0.006-0.018 0-0.029 0.006-0.041 0.006-0.611 0.076-1.21 0.194-1.804 0.352-0.006 0-0.006 0.006-0.029 0.006-2.485 0.652-4.8 1.956-6.691 3.854-0.006 0.012-0.012 0.023-0.029 0.035-0.012 0.012-0.023 0.023-0.029 0.035-0.012 0.012-0.023 0.023-0.035 0.035l-201.073 206.448c-0.006 0.012-0.018 0.018-0.029 0.029 0 0 0 0.006-0.006 0.006-0.012 0.018-0.023 0.018-0.029 0.035-1.762 1.833-2.978 4.042-3.607 6.398 0 0.006 0 0.006 0 0.006 0 0.012-0.006 0.023-0.006 0.035 0 0 0 0.018-0.006 0.029-0.182 0.699-0.311 1.41-0.388 2.133 0 0 0 0.006 0 0.006 0 0.012 0 0.023 0 0.041 0 0.006 0 0.012 0 0.023s0 0.023 0 0.035c0 0.006 0 0.006 0 0.006-0.053 0.523-0.076 1.046-0.076 1.574v788.061c0 8.113 6.574 14.687 14.687 14.687h770.437c8.113 0 14.687-6.574 14.687-14.687v-994.627c0-8.113-6.574-14.687-14.687-14.687h-569.269c-0.035 0-0.070 0-0.106 0zM342.542-34.627h539.984v965.253h-741.057v-758.799h186.392c8.113 0 14.687-6.574 14.687-14.687v-191.768zM161.589 142.454l151.585-155.632v155.632h-151.585zM799.434 233.653h-572.113c-8.113 0-14.687 6.574-14.687 14.687s6.574 14.687 14.687 14.687h572.113c8.113 0 14.687-6.574 14.687-14.687s-6.574-14.687-14.687-14.687zM799.434 309.043h-572.113c-8.113 0-14.687 6.574-14.687 14.687s6.574 14.687 14.687 14.687h572.113c8.113 0 14.687-6.574 14.687-14.687s-6.574-14.687-14.687-14.687zM686.587 414.024c-3.466 0-6.85 1.228-9.523 3.507-3.184 2.714-5.064 6.662-5.158 10.845l-0.552 24.315-100.945 15.75c-4.089 0.634-7.719 2.973-9.999 6.427-2.279 3.46-2.99 7.713-1.962 11.726l38.556 150.604c-23.569 22.529-39.296 53.436-42.127 88.414-6.133 75.754 50.505 142.361 126.259 148.5 75.707 6.157 142.361-50.511 148.495-126.253v0c3.437-42.433-12.824-81.999-41.105-109.675l39.942-188.877c0.846-3.995-0.006-8.154-2.356-11.485-2.344-3.337-5.975-5.546-10.010-6.104l-127.504-17.542c-0.676-0.106-1.345-0.153-2.009-0.153zM697.385 598.988l3.507-153.482 95.564 13.148-33.756 159.627c-17.53-10.463-37.651-17.178-59.34-18.94-1.992-0.159-3.989-0.27-5.975-0.352zM590.906 494.965l77.658-12.119 1.909 8.225-2.514 109.962c-16.291 2.92-31.682 8.73-45.564 16.925l-31.488-122.993zM692.321 845.185c-2.926 0-5.869-0.123-8.824-0.364-59.605-4.823-104.176-57.243-99.353-116.848s57.313-104.235 116.854-99.353c59.605 4.823 104.176 57.249 99.353 116.854v0c-4.594 56.644-52.161 99.711-108.030 99.711zM463.313 612.136h-235.992c-8.113 0-14.687 6.574-14.687 14.687s6.574 14.687 14.687 14.687h235.998c8.113 0 14.687-6.574 14.687-14.687s-6.58-14.687-14.693-14.687zM463.313 701.038h-235.992c-8.113 0-14.687 6.574-14.687 14.687s6.574 14.687 14.687 14.687h235.998c8.113 0 14.687-6.574 14.687-14.687s-6.58-14.687-14.693-14.687zM463.313 795.338h-235.992c-8.113 0-14.687 6.574-14.687 14.687s6.574 14.687 14.687 14.687h235.998c8.113 0 14.687-6.574 14.687-14.687s-6.58-14.687-14.693-14.687z" />
<glyph unicode="&#xe908;" glyph-name="add-black" d="M810.667 405.333h-256v-256h-85.333v256h-256v85.333h256v256h85.333v-256h256v-85.333z" />
<glyph unicode="&#xe909;" glyph-name="apps" d="M170.667 618.667h170.667v170.667h-170.667v-170.667zM426.667 106.667h170.667v170.667h-170.667v-170.667zM170.667 106.667h170.667v170.667h-170.667v-170.667zM170.667 362.667h170.667v170.667h-170.667v-170.667zM426.667 362.667h170.667v170.667h-170.667v-170.667zM682.667 789.333v-170.667h170.667v170.667h-170.667zM426.667 618.667h170.667v170.667h-170.667v-170.667zM682.667 362.667h170.667v170.667h-170.667v-170.667zM682.667 106.667h170.667v170.667h-170.667v-170.667z" />
<glyph unicode="&#xe90a;" glyph-name="arrow-drop-down" d="M298.667 533.333l213.333-213.333 213.333 213.333z" />
<glyph unicode="&#xe90b;" glyph-name="arrow-upward" d="M170.667 448l60.16-60.16 238.507 238.080v-519.253h85.333v519.253l238.080-238.507 60.587 60.587-341.333 341.333-341.333-341.333z" />
<glyph unicode="&#xe90c;" glyph-name="attachment" d="M85.333 426.667c0 129.707 104.96 234.667 234.667 234.667h448c94.293 0 170.667-76.373 170.667-170.667s-76.373-170.667-170.667-170.667h-362.667c-58.88 0-106.667 47.787-106.667 106.667s47.787 106.667 106.667 106.667h320v-85.333h-323.84c-23.467 0-23.467-42.667 0-42.667h366.507c46.933 0 85.333 38.4 85.333 85.333s-38.4 85.333-85.333 85.333h-448c-82.347 0-149.333-66.987-149.333-149.333s66.987-149.333 149.333-149.333h405.333v-85.333h-405.333c-129.707 0-234.667 104.96-234.667 234.667z" />
<glyph unicode="&#xe90d;" glyph-name="baseline-more-vert" d="M512 618.667c46.933 0 85.333 38.4 85.333 85.333s-38.4 85.333-85.333 85.333-85.333-38.4-85.333-85.333 38.4-85.333 85.333-85.333zM512 533.333c-46.933 0-85.333-38.4-85.333-85.333s38.4-85.333 85.333-85.333 85.333 38.4 85.333 85.333-38.4 85.333-85.333 85.333zM512 277.333c-46.933 0-85.333-38.4-85.333-85.333s38.4-85.333 85.333-85.333 85.333 38.4 85.333 85.333-38.4 85.333-85.333 85.333z" />
<glyph unicode="&#xe90e;" glyph-name="images" horiz-adv-x="1152" d="M1088 832h-64v64c0 35.2-28.8 64-64 64h-896c-35.2 0-64-28.8-64-64v-768c0-35.2 28.8-64 64-64h64v-64c0-35.2 28.8-64 64-64h896c35.2 0 64 28.8 64 64v768c0 35.2-28.8 64-64 64zM128 768v-640h-63.886c-0.040 0.034-0.082 0.076-0.114 0.116v767.77c0.034 0.040 0.076 0.082 0.114 0.114h895.77c0.040-0.034 0.082-0.076 0.116-0.116v-63.884h-768c-35.2 0-64-28.8-64-64v0zM1088 0.116c-0.034-0.040-0.076-0.082-0.116-0.116h-895.77c-0.040 0.034-0.082 0.076-0.114 0.116v767.77c0.034 0.040 0.076 0.082 0.114 0.114h895.77c0.040-0.034 0.082-0.076 0.116-0.116v-767.768zM960 608c0-53.020-42.98-96-96-96s-96 42.98-96 96 42.98 96 96 96 96-42.98 96-96zM1024 64h-768v128l224 384 256-320h64l224 192z" />
<glyph unicode="&#xe90f;" glyph-name="baseline-palette" d="M512 832c-212.053 0-384-171.947-384-384s171.947-384 384-384c35.413 0 64 28.587 64 64 0 16.64-6.4 31.573-16.64 43.093-9.813 11.093-16.213 26.027-16.213 42.24 0 35.413 28.587 64 64 64h75.52c117.76 0 213.333 95.573 213.333 213.333 0 188.587-171.947 341.333-384 341.333zM277.333 448c-35.413 0-64 28.587-64 64s28.587 64 64 64 64-28.587 64-64-28.587-64-64-64zM405.333 618.667c-35.413 0-64 28.587-64 64s28.587 64 64 64 64-28.587 64-64-28.587-64-64-64zM618.667 618.667c-35.413 0-64 28.587-64 64s28.587 64 64 64 64-28.587 64-64-28.587-64-64-64zM746.667 448c-35.413 0-64 28.587-64 64s28.587 64 64 64 64-28.587 64-64-28.587-64-64-64z" />
<glyph unicode="&#xe910;" glyph-name="baseline-redo" d="M785.067 507.733c-78.933 68.693-181.333 110.933-294.4 110.933-198.4 0-366.080-129.28-424.96-308.053l100.693-33.28c44.8 136.107 172.8 234.667 324.267 234.667 83.2 0 159.147-30.72 218.453-80.213l-154.453-154.453h384v384l-153.6-153.6z" />
<glyph unicode="&#xe911;" glyph-name="baseline-tune" d="M128 234.667v-85.333h256v85.333h-256zM128 746.667v-85.333h426.667v85.333h-426.667zM554.667 64v85.333h341.333v85.333h-341.333v85.333h-85.333v-256h85.333zM298.667 576v-85.333h-170.667v-85.333h170.667v-85.333h85.333v256h-85.333zM896 405.333v85.333h-426.667v-85.333h426.667zM640 576h85.333v85.333h170.667v85.333h-170.667v85.333h-85.333v-256z" />
<glyph unicode="&#xe912;" glyph-name="baseline-undo" d="M533.333 618.667c-113.067 0-215.467-42.24-294.4-110.933l-153.6 153.6v-384h384l-154.453 154.453c59.307 49.493 134.827 80.213 218.453 80.213 151.040 0 279.467-98.56 324.267-234.667l101.12 33.28c-59.307 178.773-226.987 308.053-425.387 308.053z" />
<glyph unicode="&#xe913;" glyph-name="uppercase" d="M411.095 408.292c0 107.445-48.584 197.139-200.876 197.139-83.153 0-145.752-22.423-177.518-40.175l26.161-91.562c29.898 18.686 79.416 34.569 126.131 34.569 70.073 0 83.153-34.569 83.153-58.897v-6.576c-161.635 1.006-268.146-56.022-268.146-174.643 0-72.876 55.124-140.146 147.62-140.146 54.19 0 100.905 19.656 130.803 56.13h2.803l8.409-45.781h128c-4.672 25.226-6.54 67.27-6.54 111.254v158.688zM272.818 304.584c0-8.337-0.934-16.818-2.803-24.292-9.343-28.999-38.307-52.321-73.81-52.321-31.766 0-56.058 17.752-56.058 54.19 0 55.124 57.927 72.876 132.672 71.978v-49.554zM828.73 768h-186.897l-192.431-629.723h147.62l44.811 161.635h180.357l48.62-161.635h153.226l-195.306 629.723zM662.423 406.459l37.408 133.606c10.241 36.438 19.585 84.088 28.964 121.46h1.869c9.343-37.372 20.555-84.088 31.766-121.46l39.277-133.606h-139.284zM288.377 723.405h-216.544v-40.427h216.544v-44.595l158.724 64.827-158.724 64.791z" />
<glyph unicode="&#xe914;" glyph-name="baseline-warning" d="M42.667 64h938.667l-469.333 810.667-469.333-810.667zM554.667 192h-85.333v85.333h85.333v-85.333zM554.667 362.667h-85.333v170.667h85.333v-170.667z" />
<glyph unicode="&#xe915;" glyph-name="bottom-center" d="M512 960c-281.6 0-512-230.4-512-512s230.4-512 512-512 512 230.4 512 512-230.4 512-512 512zM512 38.4c-225.28 0-409.6 184.32-409.6 409.6s184.32 409.6 409.6 409.6 409.6-184.32 409.6-409.6-184.32-409.6-409.6-409.6z" />
<glyph unicode="&#xe916;" glyph-name="bring-forward" d="M85.333 874.667h597.333v-597.333h-597.333v597.333zM938.667 618.667v-597.333h-597.333v170.667h85.333v-85.333h426.667v426.667h-85.333v85.333h170.667z" />
<glyph unicode="&#xe917;" glyph-name="bring-to-front" d="M85.333 874.667h384v-170.667h-85.333v85.333h-213.333v-213.333h85.333v-85.333h-170.667v384zM938.667 405.333v-384h-384v170.667h85.333v-85.333h213.333v213.333h-85.333v85.333h170.667zM341.333 618.667h341.333v-341.333h-341.333v341.333z" />
<glyph unicode="&#xe918;" glyph-name="camera-alt" d="M648.533 448c0-75.405-61.128-136.533-136.533-136.533s-136.533 61.128-136.533 136.533c0 75.405 61.128 136.533 136.533 136.533s136.533-61.128 136.533-136.533zM384 874.667l-78.080-85.333h-135.253c-46.933 0-85.333-38.4-85.333-85.333v-512c0-46.933 38.4-85.333 85.333-85.333h682.667c46.933 0 85.333 38.4 85.333 85.333v512c0 46.933-38.4 85.333-85.333 85.333h-135.253l-78.080 85.333h-256zM512 234.667c-117.76 0-213.333 95.573-213.333 213.333s95.573 213.333 213.333 213.333 213.333-95.573 213.333-213.333-95.573-213.333-213.333-213.333z" />
<glyph unicode="&#xe919;" glyph-name="info-circle" d="M460.8 192h102.4v307.2h-102.4v-307.2zM512 960c-281.6 0-512-230.4-512-512s230.4-512 512-512 512 230.4 512 512-230.4 512-512 512zM512 38.4c-225.28 0-409.6 184.32-409.6 409.6s184.32 409.6 409.6 409.6 409.6-184.32 409.6-409.6-184.32-409.6-409.6-409.6zM460.8 601.6h102.4v102.4h-102.4v-102.4z" />
<glyph unicode="&#xe91a;" glyph-name="caret-right" d="M780.994 493.002l-447.996 448c-12.669 12.669-27.653 18.998-44.997 18.998s-32.339-6.329-45.008-18.998c-12.669-12.669-18.998-27.663-18.998-44.997v-895.996c0-17.331 6.329-32.335 18.998-44.997 12.683-12.669 27.677-19.012 45.008-19.012 17.334 0 32.328 6.343 44.997 19.012l447.996 448c12.658 12.655 19.012 27.66 19.012 44.997 0 17.331-6.35 32.325-19.012 44.994z" />
<glyph unicode="&#xe91b;" glyph-name="position" d="M0 960h155.020v-157.711h-155.020v157.711zM213.231 960h155.080v-157.711h-155.080v157.711zM426.522 960h155.020v-157.711h-155.020v157.711zM639.753 960h155.020v-157.711h-155.020v157.711zM868.95 960h155.050v-157.711h-155.050v157.711zM0 743.42h155.020v-157.681h-155.020v157.681zM213.231 743.42h155.080v-157.681h-155.080v157.681zM426.522 743.42h155.020v-157.681h-155.020v157.681zM639.753 743.42h155.020v-157.681h-155.020v157.681zM868.95 743.42h155.050v-157.681h-155.050v157.681zM0 526.87h155.020v-157.711h-155.020v157.711zM213.231 526.87h155.080v-157.711h-155.080v157.711zM426.522 526.87h155.020v-157.711h-155.020v157.711zM639.753 526.87h155.020v-157.711h-155.020v157.711zM868.95 526.87h155.050v-157.711h-155.050v157.711zM0 310.321h155.020v-157.681h-155.020v157.681zM213.231 310.321h155.080v-157.681h-155.080v157.681zM426.522 310.321h155.020v-157.681h-155.020v157.681zM639.753 310.321h155.020v-157.681h-155.020v157.681zM868.95 310.321h155.050v-157.681h-155.050v157.681zM0 93.711h155.020v-157.711h-155.020v157.711zM213.231 93.711h155.080v-157.711h-155.080v157.711zM426.522 93.711h155.020v-157.711h-155.020v157.711zM639.753 93.711h155.020v-157.711h-155.020v157.711zM868.95 93.711h155.050v-157.711h-155.050v157.711z" />
<glyph unicode="&#xe91c;" glyph-name="fill-color" d="M994.075 801.307l-1.384 3.074c-19.625 43.247-52.829 78.347-95.103 98.075-227.561 106.069-506.363 65.691-694.213-122.107-151.52-151.52-207.065-362.223-167.199-557.502 28.080-137.48 136.865-246.315 274.344-274.344 195.279-39.814 405.982 15.731 557.502 167.199 12.4 12.4 24.135 25.211 35.203 38.38 43.504 51.651 22.034 130.767-39.968 157.617-37.662 16.295-71.327 44.58-95.513 85.111-37.816 63.488-36.894 145.627 2.101 208.397 38.226 61.54 98.946 94.027 161.307 98.075 50.216 3.228 83.677 52.215 62.924 98.024zM279.468 114.934c-42.428 0-76.861 34.434-76.861 76.861s34.434 76.861 76.861 76.861 76.861-34.434 76.861-76.861-34.383-76.861-76.861-76.861zM279.468 345.518c-56.621 0-102.482 45.861-102.482 102.482s45.861 102.482 102.482 102.482 102.482-45.861 102.482-102.482c0-56.621-45.861-102.482-102.482-102.482zM458.812 12.452c-28.285 0-51.241 22.956-51.241 51.241s22.956 51.241 51.241 51.241 51.241-22.956 51.241-51.241c0-28.285-22.905-51.241-51.241-51.241zM484.432 550.482c-70.764 0-128.102 57.339-128.102 128.102s57.339 128.102 128.102 128.102 128.102-57.339 128.102-128.102c0-70.764-57.339-128.102-128.102-128.102z" />
<glyph unicode="&#xe91d;" glyph-name="chevron-right" d="M426.667 704l-60.16-60.16 195.413-195.84-195.413-195.84 60.16-60.16 256 256z" />
<glyph unicode="&#xe91e;" glyph-name="clear" d="M810.667 686.507l-60.16 60.16-238.507-238.507-238.507 238.507-60.16-60.16 238.507-238.507-238.507-238.507 60.16-60.16 238.507 238.507 238.507-238.507 60.16 60.16-238.507 238.507z" />
<glyph unicode="&#xe91f;" glyph-name="cloud-upload" d="M825.6 531.627c-29.013 147.2-158.293 257.707-313.6 257.707-123.307 0-230.4-69.973-283.733-172.373-128.427-13.653-228.267-122.453-228.267-254.293 0-141.227 114.773-256 256-256h554.667c117.76 0 213.333 95.573 213.333 213.333 0 112.64-87.467 203.947-198.4 211.627zM597.333 405.333v-170.667h-170.667v170.667h-128l213.333 213.333 213.333-213.333h-128z" />
<glyph unicode="&#xe920;" glyph-name="content-copy" d="M682.667 917.333h-512c-46.933 0-85.333-38.4-85.333-85.333v-597.333h85.333v597.333h512v85.333zM810.667 746.667h-469.333c-46.933 0-85.333-38.4-85.333-85.333v-597.333c0-46.933 38.4-85.333 85.333-85.333h469.333c46.933 0 85.333 38.4 85.333 85.333v597.333c0 46.933-38.4 85.333-85.333 85.333zM810.667 64h-469.333v597.333h469.333v-597.333z" />
<glyph unicode="&#xe921;" glyph-name="delete" d="M256 149.333c0-46.933 38.4-85.333 85.333-85.333h341.333c46.933 0 85.333 38.4 85.333 85.333v512h-512v-512zM810.667 789.333h-149.333l-42.667 42.667h-213.333l-42.667-42.667h-149.333v-85.333h597.333v85.333z" />
<glyph unicode="&#xe922;" glyph-name="diamond" d="M855.354 905.974h-686.706l-168.648-231.144 512-684.804 512 684.804-168.646 231.144zM824.81 845.876l102.714-140.78h-242.426l-111.104 140.78h250.816zM608.54 705.098h-193.076l96.536 122.324 96.54-122.324zM199.192 845.876h250.814l-111.102-140.78h-242.428l102.716 140.78zM97.34 645h237.396l113.6-469.458-350.996 469.458zM396.568 645h230.866l-115.434-477.032-115.432 477.032zM575.664 175.54l113.6 469.46h237.396l-350.996-469.46z" />
<glyph unicode="&#xe923;" glyph-name="dis-horizontal" d="M170.667 64v768h170.667v-768h-170.667zM426.667 64v768h170.667v-768h-170.667zM682.667 64v768h170.667v-768h-170.667z" />
<glyph unicode="&#xe924;" glyph-name="dis-vertical" d="M128 789.333h768v-170.667h-768v170.667zM128 533.333h768v-170.667h-768v170.667zM128 277.333h768v-170.667h-768v170.667z" />
<glyph unicode="&#xe925;" glyph-name="draw" d="M298.667 362.667c-70.827 0-128-57.173-128-128 0-55.893-49.493-85.333-85.333-85.333 39.253-52.053 106.24-85.333 170.667-85.333 94.293 0 170.667 76.373 170.667 170.667 0 70.827-57.173 128-128 128zM883.627 762.453l-57.173 57.173c-16.64 16.64-43.52 16.64-60.16 0l-382.293-382.293 117.333-117.333 382.293 382.293c16.64 16.64 16.64 43.52 0 60.16z" />
<glyph unicode="&#xe926;" glyph-name="drawing" d="M981.397 762.784l-189.273 189.273c-10.598 10.591-27.773 10.591-38.367 0l-470.625-470.621c-3.794-3.798-6.381-8.638-7.426-13.901l-46.893-236.166c-1.762-8.884 1.020-18.064 7.426-24.47 5.14-5.136 12.060-7.943 19.186-7.943 1.754 0 3.527 0.17 5.285 0.521l236.166 46.893c5.267 1.045 10.103 3.632 13.901 7.426l470.621 470.621c10.595 10.595 10.595 27.769 0 38.367zM300.885 315.729l24.51 123.444 143.118-143.118-123.444-24.51-44.184 44.184zM744.822 138.66c-259.457 108.62-428.365-71.016-478.811-98.297-64.484-34.873-155.326-75.852-176.443-4.912-12.74 42.799 56.142 88.545 101.755 102.8 33.278 10.403 19.066 62.787-14.425 52.323-70.832-22.141-155.351-81.806-140.531-165.808 11.011-62.418 89.236-119.349 240.065-40.201 109.63 57.52 184.104 176.663 415.011 114.965 75.849-20.263 137.164-69.703 163.417-144.894 11.459-32.808 63.887-18.697 52.323 14.425-27.983 80.135-84.595 137.041-162.361 169.599z" />
<glyph unicode="&#xe927;" glyph-name="dropbox-logo" d="M301.544 198.14l210.457 175.392-303.999 187.7-208.002-166.781zM512.001 373.548l211.078-175.392 300.923 196.311-207.996 166.766zM513.234 335.384v1.237l-0.612-0.619-0.621 0.619v-1.237l-210.457-174.774-90.466 59.076v-66.452l300.923-180.32v-0.612l0.621 0.612 0.612-0.612v0.612l301.54 180.32v66.452l-90.468-59.076zM0 727.391l208.002-166.159 303.999 187.077-210.457 175.388zM723.079 923.698l-211.078-175.388 304.005-187.077 207.996 166.159z" />
<glyph unicode="&#xe928;" glyph-name="dropdown-arrows" d="M512 960l-279.273-372.364h558.545zM512-64l279.273 372.364h-558.545z" />
<glyph unicode="&#xe929;" glyph-name="facebook-circle" d="M1024 448c0 282.765-229.237 512-512 512-282.765 0-512-229.235-512-512 0-282.763 229.235-512 512-512 282.763 0 512 229.237 512 512zM46.545 448c0 257.071 208.384 465.455 465.455 465.455s465.455-208.384 465.455-465.455-208.384-465.455-465.455-465.455-465.455 208.384-465.455 465.455zM531.642 152.484v295.516h97.513l15.407 97.931h-112.919v49.105c0 25.553 8.378 49.943 45.056 49.943h73.308v97.745h-104.075c-87.505 0-111.383-57.622-111.383-137.495v-59.253h-60.043v-97.976h60.043v-295.516h97.094z" />
<glyph unicode="&#xe92a;" glyph-name="facebook-logo" d="M1024 789.322c0 89.68-80.964 170.678-170.667 170.678h-682.667c-89.702 0-170.667-80.998-170.667-170.678v-682.644c0-89.68 80.964-170.678 170.678-170.678h341.322v386.844h-125.156v170.667h125.156v66.492c0 114.677 86.107 217.953 192 217.953h137.956v-170.667h-137.956c-15.098 0-32.711-18.33-32.711-45.784v-67.994h170.667v-170.667h-170.667v-386.844h182.044c89.702 0 170.667 80.998 170.667 170.678v682.644z" />
<glyph unicode="&#xe92b;" glyph-name="file-upload" d="M384 277.333h256v256h170.667l-298.667 298.667-298.667-298.667h170.667zM213.333 192h597.333v-85.333h-597.333z" />
<glyph unicode="&#xe92c;" glyph-name="filter" d="M0.014 91.109l462.675 462.675 155.104-155.104-462.675-462.675-155.104 155.104zM505.085 596.183l142.032 142.032 155.105-155.105-142.032-142.032-155.105 155.105zM778.245 756.643l107.652 107.652 42.398-42.398-107.652-107.652-42.398 42.398zM629.451 958.321l59.939 1.679 4.263-152.204-59.939-1.679-4.263 152.204zM398.617 816.217l42.398 42.398 106.194-106.194-42.398-42.398-106.194 106.194zM870.115 569.694l1.679 59.939 152.184-4.263-1.679-59.939-152.184 4.263zM774.034 440.791l42.398 42.398 106.194-106.194-42.398-42.398-106.194 106.194z" />
<glyph unicode="&#xe92d;" glyph-name="fomat-done" d="M384 268.8l-179.2 179.2-59.733-59.733 238.933-238.933 512 512-59.733 59.733-452.267-452.267z" />
<glyph unicode="&#xe92e;" glyph-name="stack" d="M1024 640l-512 256-512-256 512-256 512 256zM512 811.030l342.058-171.030-342.058-171.030-342.058 171.030 342.058 171.030zM921.444 499.278l102.556-51.278-512-256-512 256 102.556 51.278 409.444-204.722zM921.444 307.278l102.556-51.278-512-256-512 256 102.556 51.278 409.444-204.722z" />
<glyph unicode="&#xe92f;" glyph-name="fomat-highlight-off" d="M622.507 618.667l-110.507-110.507-110.507 110.507-60.16-60.16 110.507-110.507-110.507-110.507 60.16-60.16 110.507 110.507 110.507-110.507 60.16 60.16-110.507 110.507 110.507 110.507-60.16 60.16zM512 874.667c-235.947 0-426.667-190.72-426.667-426.667s190.72-426.667 426.667-426.667 426.667 190.72 426.667 426.667-190.72 426.667-426.667 426.667zM512 106.667c-188.16 0-341.333 153.173-341.333 341.333s153.173 341.333 341.333 341.333 341.333-153.173 341.333-341.333-153.173-341.333-341.333-341.333z" />
<glyph unicode="&#xe930;" glyph-name="fomat-info-outline" d="M469.333 234.667h85.333v256h-85.333v-256zM512 874.667c-235.52 0-426.667-191.147-426.667-426.667s191.147-426.667 426.667-426.667 426.667 191.147 426.667 426.667-191.147 426.667-426.667 426.667zM512 106.667c-188.16 0-341.333 153.173-341.333 341.333s153.173 341.333 341.333 341.333 341.333-153.173 341.333-341.333-153.173-341.333-341.333-341.333zM469.333 576h85.333v85.333h-85.333v-85.333z" />
<glyph unicode="&#xe931;" glyph-name="fomat-lock-open" d="M512 234.667c46.933 0 85.333 38.4 85.333 85.333s-38.4 85.333-85.333 85.333-85.333-38.4-85.333-85.333 38.4-85.333 85.333-85.333zM768 618.667h-42.667v85.333c0 117.76-95.573 213.333-213.333 213.333s-213.333-95.573-213.333-213.333h81.067c0 72.96 59.307 132.267 132.267 132.267s132.267-59.307 132.267-132.267v-85.333h-388.267c-46.933 0-85.333-38.4-85.333-85.333v-426.667c0-46.933 38.4-85.333 85.333-85.333h512c46.933 0 85.333 38.4 85.333 85.333v426.667c0 46.933-38.4 85.333-85.333 85.333zM768 106.667h-512v426.667h512v-426.667z" />
<glyph unicode="&#xe932;" glyph-name="fomat-lock-outline" d="M512 234.667c46.933 0 85.333 38.4 85.333 85.333s-38.4 85.333-85.333 85.333-85.333-38.4-85.333-85.333 38.4-85.333 85.333-85.333zM768 618.667h-42.667v85.333c0 117.76-95.573 213.333-213.333 213.333s-213.333-95.573-213.333-213.333v-85.333h-42.667c-46.933 0-85.333-38.4-85.333-85.333v-426.667c0-46.933 38.4-85.333 85.333-85.333h512c46.933 0 85.333 38.4 85.333 85.333v426.667c0 46.933-38.4 85.333-85.333 85.333zM379.733 704c0 72.96 59.307 132.267 132.267 132.267s132.267-59.307 132.267-132.267v-85.333h-264.533v85.333zM768 106.667h-512v426.667h512v-426.667z" />
<glyph unicode="&#xe933;" glyph-name="fomat-position" d="M128 576h170.667v170.667h-170.667v-170.667zM128 362.667h170.667v170.667h-170.667v-170.667zM341.333 362.667h170.667v170.667h-170.667v-170.667zM554.667 362.667h170.667v170.667h-170.667v-170.667zM341.333 576h170.667v170.667h-170.667v-170.667zM554.667 746.667v-170.667h170.667v170.667h-170.667zM768 362.667h170.667v170.667h-170.667v-170.667zM128 149.333h170.667v170.667h-170.667v-170.667zM341.333 149.333h170.667v170.667h-170.667v-170.667zM554.667 149.333h170.667v170.667h-170.667v-170.667zM768 149.333h170.667v170.667h-170.667v-170.667zM768 746.667v-170.667h170.667v170.667h-170.667z" />
<glyph unicode="&#xe934;" glyph-name="fomat-search" d="M661.333 362.667h-33.707l-11.947 11.52c41.813 48.64 66.987 111.787 66.987 180.48 0 153.173-124.16 277.333-277.333 277.333s-277.333-124.16-277.333-277.333 124.16-277.333 277.333-277.333c68.693 0 131.84 25.173 180.48 66.987l11.52-11.947v-33.707l213.333-212.907 63.573 63.573-212.907 213.333zM405.333 362.667c-106.24 0-192 85.76-192 192s85.76 192 192 192 192-85.76 192-192-85.76-192-192-192z" />
<glyph unicode="&#xe935;" glyph-name="fomat-top-left" d="M384 746.667v-85.333h281.173l-494.507-494.507 60.16-60.16 494.507 494.507v-281.173h85.333v426.667z" />
<glyph unicode="&#xe936;" glyph-name="fomat-vertical-align-center" d="M341.333 149.333h128v-170.667h85.333v170.667h128l-170.667 170.667-170.667-170.667zM682.667 746.667h-128v170.667h-85.333v-170.667h-128l170.667-170.667 170.667 170.667zM170.667 490.667v-85.333h682.667v85.333h-682.667z" />
<glyph unicode="&#xe937;" glyph-name="fomat-vertical-align-top" d="M341.333 490.667h128v-426.667h85.333v426.667h128l-170.667 170.667-170.667-170.667zM170.667 832v-85.333h682.667v85.333h-682.667z" />
<glyph unicode="&#xe938;" glyph-name="qrcode" d="M320 896h-256v-256h256v256zM384 960v0-384h-384v384h384zM128 832h128v-128h-128zM960 896h-256v-256h256v256zM1024 960v0-384h-384v384h384zM768 832h128v-128h-128zM320 256h-256v-256h256v256zM384 320v0-384h-384v384h384zM128 192h128v-128h-128zM448 960h64v-64h-64zM512 896h64v-64h-64zM448 832h64v-64h-64zM512 768h64v-64h-64zM448 704h64v-64h-64zM512 640h64v-64h-64zM448 576h64v-64h-64zM448 448h64v-64h-64zM512 384h64v-64h-64zM448 320h64v-64h-64zM512 256h64v-64h-64zM448 192h64v-64h-64zM512 128h64v-64h-64zM448 64h64v-64h-64zM512 0h64v-64h-64zM960 448h64v-64h-64zM64 448h64v-64h-64zM128 512h64v-64h-64zM0 512h64v-64h-64zM256 512h64v-64h-64zM320 448h64v-64h-64zM384 512h64v-64h-64zM576 448h64v-64h-64zM640 512h64v-64h-64zM704 448h64v-64h-64zM768 512h64v-64h-64zM832 448h64v-64h-64zM896 512h64v-64h-64zM960 320h64v-64h-64zM576 320h64v-64h-64zM640 384h64v-64h-64zM704 320h64v-64h-64zM832 320h64v-64h-64zM896 384h64v-64h-64zM960 192h64v-64h-64zM576 192h64v-64h-64zM640 256h64v-64h-64zM768 256h64v-64h-64zM832 192h64v-64h-64zM896 256h64v-64h-64zM960 64h64v-64h-64zM640 128h64v-64h-64zM704 64h64v-64h-64zM768 128h64v-64h-64zM832 64h64v-64h-64zM640 0h64v-64h-64zM768 0h64v-64h-64zM896 0h64v-64h-64z" />
<glyph unicode="&#xe939;" glyph-name="fomat-visibility" d="M512 768c-213.333 0-395.52-132.693-469.333-320 73.813-187.307 256-320 469.333-320s395.52 132.693 469.333 320c-73.813 187.307-256 320-469.333 320zM512 234.667c-117.76 0-213.333 95.573-213.333 213.333s95.573 213.333 213.333 213.333 213.333-95.573 213.333-213.333-95.573-213.333-213.333-213.333zM512 576c-70.827 0-128-57.173-128-128s57.173-128 128-128 128 57.173 128 128-57.173 128-128 128z" />
<glyph unicode="&#xe93a;" glyph-name="fomat-visibility-off" d="M512 661.333c117.76 0 213.333-95.573 213.333-213.333 0-27.733-5.547-53.76-15.36-78.080l124.587-124.587c64.427 53.76 115.2 123.307 146.347 202.667-73.813 187.307-256 320-469.333 320-59.733 0-116.907-10.667-169.813-29.867l92.16-92.16c24.32 9.813 50.347 15.36 78.080 15.36zM85.333 777.813l116.907-116.907c-70.827-55.040-126.293-128.427-159.573-212.907 73.813-187.307 256-320 469.333-320 66.133 0 129.28 12.8 186.88 35.84l17.92-17.92 125.013-124.587 54.187 54.187-756.48 756.48-54.187-54.187zM321.28 541.867l66.133-66.133c-2.133-8.96-3.413-18.347-3.413-27.733 0-70.827 57.173-128 128-128 9.387 0 18.773 1.28 27.733 3.413l66.133-66.133c-28.587-14.080-60.16-22.613-93.867-22.613-117.76 0-213.333 95.573-213.333 213.333 0 33.707 8.533 65.28 22.613 93.867zM505.173 575.147l134.4-134.4 0.853 6.827c0 70.827-57.173 128-128 128l-7.253-0.427z" />
<glyph unicode="&#xe93b;" glyph-name="format-align-center" d="M298.667 320v-85.333h426.667v85.333h-426.667zM128 64h768v85.333h-768v-85.333zM128 405.333h768v85.333h-768v-85.333zM298.667 661.333v-85.333h426.667v85.333h-426.667zM128 832v-85.333h768v85.333h-768z" />
<glyph unicode="&#xe93c;" glyph-name="format-align-justify" d="M128 64h768v85.333h-768v-85.333zM128 234.667h768v85.333h-768v-85.333zM128 405.333h768v85.333h-768v-85.333zM128 576h768v85.333h-768v-85.333zM128 832v-85.333h768v85.333h-768z" />
<glyph unicode="&#xe93d;" glyph-name="format-align-left" d="M640 320h-512v-85.333h512v85.333zM640 661.333h-512v-85.333h512v85.333zM128 405.333h768v85.333h-768v-85.333zM128 64h768v85.333h-768v-85.333zM128 832v-85.333h768v85.333h-768z" />
<glyph unicode="&#xe93e;" glyph-name="format-align-right" d="M128 64h768v85.333h-768v-85.333zM384 234.667h512v85.333h-512v-85.333zM128 405.333h768v85.333h-768v-85.333zM384 576h512v85.333h-512v-85.333zM128 832v-85.333h768v85.333h-768z" />
<glyph unicode="&#xe93f;" glyph-name="format-bold" d="M665.6 499.627c41.387 28.587 70.4 75.52 70.4 119.040 0 96.427-74.667 170.667-170.667 170.667h-266.667v-597.333h300.373c89.173 0 158.293 72.533 158.293 161.707 0 64.853-36.693 120.32-91.733 145.92zM426.667 682.667h128c35.413 0 64-28.587 64-64s-28.587-64-64-64h-128v128zM576 298.667h-149.333v128h149.333c35.413 0 64-28.587 64-64s-28.587-64-64-64z" />
<glyph unicode="&#xe940;" glyph-name="format-color-fill" d="M512 874.667c-235.52 0-426.667-191.147-426.667-426.667s191.147-426.667 426.667-426.667 426.667 191.147 426.667 426.667-191.147 426.667-426.667 426.667z" />
<glyph unicode="&#xe941;" glyph-name="format-italic" d="M426.667 789.333v-128h94.293l-145.92-341.333h-119.040v-128h341.333v128h-94.293l145.92 341.333h119.040v128z" />
<glyph unicode="&#xe942;" glyph-name="format-underlined" d="M512 234.667c141.227 0 256 114.773 256 256v341.333h-106.667v-341.333c0-82.347-66.987-149.333-149.333-149.333s-149.333 66.987-149.333 149.333v341.333h-106.667v-341.333c0-141.227 114.773-256 256-256zM213.333 149.333v-85.333h597.333v85.333h-597.333z" />
<glyph unicode="&#xe943;" glyph-name="fullscreen" d="M298.667 362.667h-85.333v-213.333h213.333v85.333h-128v128zM213.333 533.333h85.333v128h128v85.333h-213.333v-213.333zM725.333 234.667h-128v-85.333h213.333v213.333h-85.333v-128zM597.333 746.667v-85.333h128v-128h85.333v213.333h-213.333z" />
<glyph unicode="&#xe944;" glyph-name="full-screen-button" d="M146.286 301.714h-146.286v-365.714h365.714v146.286h-219.429v219.429zM0 594.286h146.286v219.429h219.429v146.286h-365.714v-365.714zM877.714 82.286h-219.429v-146.286h365.714v365.714h-146.286v-219.429zM658.286 960v-146.286h219.429v-219.429h146.286v365.714h-365.714z" />
<glyph unicode="&#xe945;" glyph-name="fullscreen-exit" d="M213.333 277.333h128v-128h85.333v213.333h-213.333v-85.333zM341.333 618.667h-128v-85.333h213.333v213.333h-85.333v-128zM597.333 149.333h85.333v128h128v85.333h-213.333v-213.333zM682.667 618.667v128h-85.333v-213.333h213.333v85.333h-128z" />
<glyph unicode="&#xe946;" glyph-name="full-screen-exit" d="M0 155.429h219.429v-219.429h146.286v365.714h-365.714v-146.286zM219.429 740.571h-219.429v-146.286h365.714v365.714h-146.286v-219.429zM658.286-64h146.286v219.429h219.429v146.286h-365.714v-365.714zM804.571 740.571v219.429h-146.286v-365.714h365.714v146.286h-219.429z" />
<glyph unicode="&#xe947;" glyph-name="geometrical-shapes-group" d="M624.371 519.262h399.64v-399.618h-399.64v399.618zM549.933 326.696v257.172h235.025c-13.433 114.528-110.643 203.43-228.748 203.43-124.47 0-225.62-98.725-230.043-222.098l148.438-223.458c23.551-8.933 48.836-14.332 75.328-15.046zM280.009 530.214l-280.009-421.522h560.051z" />
<glyph unicode="&#xe948;" glyph-name="google-plus-circle" d="M584.192 286.953c0 50.223-29.092 74.985-61.114 101.935l-26.206 20.388c-8.006 6.517-18.897 15.266-18.897 31.277 0 16.013 10.938 26.206 20.386 35.654 30.534 24.017 61.115 49.478 61.115 103.33 0 55.343-34.957 84.433-51.665 98.257v0h45.103l46.545 26.206h-149.924c-39.285 0-88.762-5.819-130.281-40.030-31.277-26.903-46.545-64.047-46.545-97.513 0-56.74 43.659-114.27 120.785-114.27 7.309 0 15.268 0.745 23.319 1.444-3.631-8.751-7.262-16.011-7.262-28.394 0-22.528 11.637-36.397 21.83-49.477-32.721-2.189-93.882-5.819-138.985-33.466-42.961-25.461-56.041-62.605-56.041-88.809 0-53.854 50.967-104.075 156.486-104.075 125.114-0.002 191.347 69.165 191.347 137.541zM427.706 472.529c-62.603 0-90.995 80.802-90.995 129.536 0 18.944 3.631 38.541 16.011 53.854 11.637 14.569 32.023 24.064 50.967 24.064 60.416 0 91.695-81.549 91.695-133.911 0-13.126-1.442-36.399-18.199-53.154-11.637-11.637-31.279-20.341-49.478-20.388zM428.45 179.991c-77.871 0-128.094 37.097-128.094 88.762s46.592 69.122 62.605 74.938c30.579 10.195 69.865 11.682 76.427 11.682 7.262 0 10.893 0 16.71-0.745 55.343-39.285 79.313-58.927 79.313-96.069 0-45.103-37.097-78.569-106.961-78.569zM590.754 428.31h78.801v-78.754h39.379v78.754h78.756v39.379h-78.756v78.754h-39.379v-78.754h-78.801zM1024 448c0 282.765-229.237 512-512 512-282.765 0-512-229.235-512-512 0-282.763 229.235-512 512-512 282.763 0 512 229.237 512 512zM46.545 448c0 257.071 208.384 465.455 465.455 465.455s465.455-208.384 465.455-465.455-208.384-465.455-465.455-465.455-465.455 208.384-465.455 465.455z" />
<glyph unicode="&#xe949;" glyph-name="image-layer" d="M896 149.333v597.333c0 46.933-38.4 85.333-85.333 85.333h-597.333c-46.933 0-85.333-38.4-85.333-85.333v-597.333c0-46.933 38.4-85.333 85.333-85.333h597.333c46.933 0 85.333 38.4 85.333 85.333zM362.667 384l106.667-128.427 149.333 192.427 192-256h-597.333l149.333 192z" />
<glyph unicode="&#xe94a;" glyph-name="instagram-logo" d="M741.403 960h-458.823c-155.814 0-282.579-126.771-282.579-282.585v-458.823c0-155.82 126.765-282.585 282.579-282.585h458.823c155.826 0 282.591 126.771 282.591 282.585v458.823c0.006 155.814-126.765 282.585-282.591 282.585zM933.146 218.591c0-105.723-86.014-191.732-191.738-191.732h-458.829c-105.717-0.006-191.726 86.008-191.726 191.732v458.823c0 105.717 86.008 191.732 191.726 191.732h458.823c105.723 0 191.738-86.014 191.738-191.732v-458.823zM511.997 711.848c-145.493 0-263.857-118.364-263.857-263.857 0-145.487 118.364-263.845 263.857-263.845s263.857 118.358 263.857 263.845c0 145.493-118.364 263.857-263.857 263.857zM511.997 275.005c-95.39 0-173.004 77.601-173.004 172.992 0 95.396 77.607 173.004 173.004 173.004s173.004-77.607 173.004-173.004c0-95.39-77.613-172.992-173.004-172.992zM786.92 788.886c-17.504 0-34.7-7.087-47.062-19.503-12.423-12.356-19.564-29.558-19.564-47.123 0-17.511 7.147-34.706 19.564-47.123 12.356-12.356 29.558-19.503 47.062-19.503 17.565 0 34.706 7.147 47.123 19.503 12.417 12.417 19.503 29.618 19.503 47.123 0 17.565-7.087 34.767-19.503 47.123-12.356 12.417-29.558 19.503-47.123 19.503z" />
<glyph unicode="&#xe94b;" glyph-name="layer-stack" d="M512 277.333l384 298.667-384 298.667-384-298.667 69.547-54.187zM512 168.96l-314.88 244.48-69.12-53.76 384-298.667 384 298.667-69.547 54.187-314.453-244.907z" />
<glyph unicode="&#xe94c;" glyph-name="line" d="M128 277.333h213.333v85.333h-213.333v-85.333zM405.333 277.333h213.333v85.333h-213.333v-85.333zM682.667 277.333h213.333v85.333h-213.333v-85.333zM128 106.667h85.333v85.333h-85.333v-85.333zM298.667 106.667h85.333v85.333h-85.333v-85.333zM469.333 106.667h85.333v85.333h-85.333v-85.333zM640 106.667h85.333v85.333h-85.333v-85.333zM810.667 106.667h85.333v85.333h-85.333v-85.333zM128 448h341.333v85.333h-341.333v-85.333zM554.667 448h341.333v85.333h-341.333v-85.333zM128 789.333v-170.667h768v170.667h-768z" />
<glyph unicode="&#xe94d;" glyph-name="line_spacing" d="M256 661.333h106.667l-149.333 149.333-149.333-149.333h106.667v-426.667h-106.667l149.333-149.333 149.333 149.333h-106.667v426.667zM426.667 746.667v-85.333h512v85.333h-512zM426.667 149.333h512v85.333h-512v-85.333zM426.667 405.333h512v85.333h-512v-85.333z" />
<glyph unicode="&#xe94e;" glyph-name="menu" d="M128 192h768v85.333h-768v-85.333zM128 405.333h768v85.333h-768v-85.333zM128 704v-85.333h768v85.333h-768z" />
<glyph unicode="&#xe94f;" glyph-name="opacity" d="M753.493 618.667l-241.493 241.067-241.493-241.067c-66.56-66.56-99.84-155.307-99.84-240.64s33.28-175.36 99.84-241.92 154.027-100.267 241.493-100.267 174.933 33.707 241.493 100.267 99.84 156.587 99.84 241.92-33.28 174.080-99.84 240.64zM256 362.667c0.427 85.333 26.453 139.52 75.093 187.733l180.907 184.747 180.907-186.88c48.64-47.787 74.667-100.267 75.093-185.6h-512z" />
<glyph unicode="&#xe950;" glyph-name="package" d="M982.936 718.588c0 3.89-0.864 7.78-2.593 11.455-3.458 7.348-10.158 12.319-17.506 13.832l-440.247 213.531c-7.132 3.458-15.561 3.458-22.693 0l-444.569-215.477c-8.645-4.106-14.264-12.751-14.696-22.477v-0.216c0-0.216 0-0.432 0-0.864v-540.745c0-9.942 5.619-19.019 14.696-23.341l444.569-215.477c0.216 0 0.216 0 0.432-0.216 0.648-0.216 1.297-0.432 1.945-0.864 0.216 0 0.432-0.216 0.864-0.216 0.648-0.216 1.297-0.432 1.945-0.648 0.216 0 0.432-0.216 0.648-0.216 0.648-0.216 1.513-0.216 2.161-0.432 0.216 0 0.432 0 0.648 0 0.864 0 1.945-0.216 2.81-0.216s1.945 0 2.81 0.216c0.216 0 0.432 0 0.648 0 0.648 0 1.513 0.216 2.161 0.432 0.216 0 0.432 0.216 0.648 0.216 0.648 0.216 1.297 0.432 1.945 0.648 0.216 0 0.432 0.216 0.864 0.216 0.648 0.216 1.297 0.432 1.945 0.864 0.216 0 0.216 0 0.432 0.216l445.866 216.125c8.861 4.322 14.696 13.4 14.696 23.341v539.664c-0.432 0.216-0.432 0.432-0.432 0.648zM511.136 905.32l385.567-186.948-141.994-68.944-385.567 186.948 141.994 68.944zM511.136 531.424l-385.567 186.948 184.138 89.26 385.567-186.948-184.138-89.26zM92.501 676.66l392.699-190.406v-482.607l-392.699 190.406v482.607zM537.070 3.647v482.607l184.355 89.476v-126.217c0-14.264 11.671-25.935 25.935-25.935s25.935 11.671 25.935 25.935v151.504l157.771 76.508v-482.607l-393.996-191.271z" />
<glyph unicode="&#xe951;" glyph-name="pixabay" d="M994.988 523.204c0-24.041 0.131-46.157-0.101-68.251-0.067-6.342-0.445-12.874-2.007-19.001-5.518-21.564-26.026-35.169-48.565-32.82-22.564 2.358-39.722 20.81-40.258 44.401-0.512 21.856-0.151 43.73-0.153 65.596 0 2.848 0 5.691 0 8.972-9.878 0-18.8 0-28.070 0-0.218-2.239-0.542-4.031-0.542-5.84-0.015-23.197-0.366-46.405 0.116-69.6 1.188-57.371 63.701-91.355 112.88-61.6 1.735 1.044 3.553 1.918 5.597 3.021 1.091-21.864-15.601-41.6-37.178-44.282-7.032-0.876-14.141-1.034-21.404-1.546 0-9.64 0-18.558 0-28.223 4.944 0 9.415-0.126 13.867 0.032 32.496 1.054 73.74 25.155 74.821 57.626l0.010 9.111c0 47.481 0 94.943 0 142.412-9.445-0.007-18.902-0.007-29.012-0.007zM37.722 373.657c14.629-0.361 29.336-0.401 43.906 0.802 37.363 3.088 66.22 34.085 67.017 71.089 0.822 38.529-26.068 71.112-63.265 75.712-31.563 3.91-80.67-13.003-85.052-55.434l-0.327-152.225c9.479 0 18.969 0 29.032 0l-0.21 60.081zM77.488 402.882l-48.144-0.153 0.156 51.94c2.512 24.093 24.403 40.11 49.231 38.306 23.289-1.683 41.783-22.116 41.31-45.692-0.46-23.972-18.768-43.193-42.552-44.401zM631.362 519.661c-16.321 2.996-33.419 1.645-50.173 2.284-3.635 0.151-7.27 0.366-11.585 0.614 0 20.466 0 40.15 0 59.841-9.598 0-19.196 0-28.814 0 0.052-45.064-0.198-90.108 0.26-135.171 0.465-44.091 37.477-76.956 81.331-72.925 36.661 3.378 64.557 32.494 66.824 69.828 2.232 35.931-22.049 68.944-57.842 75.531zM660.486 445.612c-2.145-24.806-20.268-42.426-44.143-42.862-24.633-0.468-43.997 16.054-46.187 41.288l-0.040 48.050 53.098 0.037c22.883-2.714 39.155-24.638 37.272-46.514zM436.729 521.871c-35.607-4.941-61.702-34.718-62.822-71.691-1.059-35.042 24.252-67.781 58.747-73.381l88.873-0.257 0.025 76.387c-2.445 45.096-40.070 75.14-84.822 68.942zM438.508 405.114c-23.89 3.145-38.658 26.122-35.379 50.661 2.962 22.136 23.363 39.19 45.91 38.408 24.313-0.881 43.285-19.125 43.973-42.926l0.082-46.195-54.585 0.052zM770.698 521.871c-35.594-4.941-61.702-34.718-62.813-71.691-1.084-35.042 24.252-67.781 58.752-73.381l88.875-0.257 0.015 76.387c-2.44 45.096-40.078 75.14-84.83 68.942zM772.477 405.114c-23.878 3.145-38.643 26.122-35.372 50.661 2.957 22.136 23.366 39.19 45.927 38.408 24.294-0.881 43.262-19.125 43.973-42.926l0.087-46.195-54.615 0.052zM362.15 384.863l-53.205 64.985 55.949 71.634-37.245 0.007-34.731-45.482-33.449 45.113-35.416 0.054c2.754-3.994 4.34-6.359 6.005-8.673l45.4-62.917-50.015-66.010c-1.791-2.393-3.38-4.949-5.884-8.618l37.804-0.069 34.528 48.671c2.618-2.927 4.627-4.991 6.399-7.215l31.541-41.293 40.244-0.037c-3.318 4.157-5.6 7.017-7.925 9.848zM168.764 522.474c9.22 0 17.915 0 27.354 0 0-48.864 0-97.721 0-147.296-8.772 0-17.863 0-27.354 0 0 48.958 0 97.63 0 147.296z" />
<glyph unicode="&#xe952;" glyph-name="reflect-horizontal" d="M64 960l320-384 313.6 384zM377.6 384l-313.6-384h640l-326.4 384zM198.4 64l179.2 217.6 192-217.6h-371.2zM640 512h64v-64h-64v64zM768 512h64v-64h-64v64zM512 512h64v-64h-64v64zM384 512h64v-64h-64v64zM256 512h64v-64h-64v64zM128 512h64v-64h-64v64zM0 512h64v-64h-64v64zM960 480v0c0-83.2-44.8-166.4-121.6-230.4l-70.4 70.4v-192h192l-76.8 76.8c89.6 76.8 140.8 172.8 140.8 275.2 0 0 0 0 0 0 0 121.6-64 230.4-185.6 313.6l-38.4-51.2c102.4-70.4 160-160 160-262.4z" />
<glyph unicode="&#xe953;" glyph-name="reflect-vertical" d="M0 0l384 320-384 313.6zM576 313.6l384-313.6v640l-384-326.4zM896 134.4l-217.6 179.2 217.6 192v-371.2zM448 640h64v-64h-64v64zM448 768h64v-64h-64v64zM448 512h64v-64h-64v64zM448 384h64v-64h-64v64zM448 256h64v-64h-64v64zM448 128h64v-64h-64v64zM448 0h64v-64h-64v64zM480 896v0c83.2 0 166.4-44.8 230.4-121.6l-70.4-70.4h192v192l-76.8-76.8c-76.8 89.6-172.8 140.8-275.2 140.8 0 0 0 0 0 0-121.6 0-230.4-64-313.6-185.6l51.2-38.4c70.4 102.4 160 160 262.4 160z" />
<glyph unicode="&#xe954;" glyph-name="refresh" d="M753.067 689.067c-61.867 61.867-146.773 100.267-241.067 100.267-188.587 0-340.907-152.747-340.907-341.333s152.32-341.333 340.907-341.333c159.147 0 291.84 108.8 329.813 256h-88.747c-34.987-99.413-129.707-170.667-241.067-170.667-141.227 0-256 114.773-256 256s114.773 256 256 256c70.827 0 133.973-29.44 180.053-75.947l-137.387-137.387h298.667v298.667l-100.267-100.267z" />
<glyph unicode="&#xe955;" glyph-name="remove" d="M810.667 405.333h-597.333v85.333h597.333v-85.333z" />
<glyph unicode="&#xe956;" glyph-name="replace-image" d="M512 746.667c212.053 0 384-114.773 384-256 0-71.68-44.373-136.533-115.627-183.040 45.653 37.12 72.96 84.053 72.96 134.827 0 121.173-152.747 218.88-341.333 218.88v-128l-170.667 170.667 170.667 170.667v-128zM512 149.333c-212.053 0-384 114.773-384 256 0 71.68 44.373 136.533 115.627 183.040-45.653-37.12-72.96-84.053-72.96-135.253 0-120.747 152.747-218.453 341.333-218.453v128l170.667-170.667-170.667-170.667v128z" />
<glyph unicode="&#xe957;" glyph-name="round-crop" d="M725.333 320h85.333v341.333c0 46.933-38.4 85.333-85.333 85.333h-341.333v-85.333h298.667c23.467 0 42.667-19.2 42.667-42.667v-298.667zM341.333 234.667c-23.467 0-42.667 19.2-42.667 42.667v597.333c0 23.467-19.2 42.667-42.667 42.667v0c-23.467 0-42.667-19.2-42.667-42.667v-128h-128c-23.467 0-42.667-19.2-42.667-42.667v0c0-23.467 19.2-42.667 42.667-42.667h128v-426.667c0-46.933 38.4-85.333 85.333-85.333h426.667v-128c0-23.467 19.2-42.667 42.667-42.667v0c23.467 0 42.667 19.2 42.667 42.667v128h128c23.467 0 42.667 19.2 42.667 42.667v0c0 23.467-19.2 42.667-42.667 42.667h-597.333z" />
<glyph unicode="&#xe958;" glyph-name="send-to-back" d="M85.333 874.667h384v-384h-384v384zM384 789.333h-213.333v-213.333h213.333v213.333zM938.667 405.333v-384h-384v384h384zM640 106.667h213.333v213.333h-213.333v-213.333zM682.667 618.667v-128h-128v128h128zM469.333 277.333h-128v128h128v-128z" />
<glyph unicode="&#xe959;" glyph-name="sent-to-backward" d="M85.333 874.667h597.333v-597.333h-597.333v597.333zM938.667 618.667v-597.333h-597.333v170.667h426.667v426.667h170.667zM170.667 789.333v-426.667h426.667v426.667h-426.667z" />
<glyph unicode="&#xe95a;" glyph-name="shapes" d="M1024 562.96c0 156.946-127.686 284.632-284.632 284.632-88.898 0-168.396-40.974-220.632-105.022v47.758c0 17.672-14.328 32-32 32h-454.736c-17.672 0-32-14.328-32-32v-454.738c0-17.672 14.328-32 32-32h268.038l-119.618-207.182c-12.312-21.32 3.134-48 27.712-48h557.204c24.616 0 40.004 26.708 27.714 48l-108.052 187.164c17.836-3.46 36.042-5.244 54.368-5.244 156.948 0 284.634 127.684 284.634 284.632zM64 367.592v390.736h390.738v-186.792l-117.748-203.944h-272.99zM709.914 112.406h-446.354c5.034 8.722 212.524 368.102 223.176 386.554 13.614-23.578 214.858-372.146 223.178-386.554zM636.38 367.79l-117.49 203.48c4.388 117.818 101.606 212.322 220.478 212.322 121.656 0 220.632-98.976 220.632-220.632s-98.976-220.632-220.632-220.632c-36.028 0-71.456 8.782-102.988 25.462z" />
<glyph unicode="&#xe95b;" glyph-name="sharp-star" d="M512 223.147l263.68-159.147-69.973 299.947 232.96 201.813-306.773 26.027-119.893 282.88-119.893-282.88-306.773-26.027 232.96-201.813-69.973-299.947 263.68 159.147z" />
<glyph unicode="&#xe95c;" glyph-name="sortable" d="M170.667 320h682.667v85.333h-682.667v-85.333zM170.667 149.333h682.667v85.333h-682.667v-85.333zM170.667 490.667h682.667v85.333h-682.667v-85.333zM170.667 746.667v-85.333h682.667v85.333h-682.667z" />
<glyph unicode="&#xe95d;" glyph-name="text" d="M991.817 945.37h-959.634c-16.691 0.070-30.666-12.634-32.183-29.257v-168.23c0-16.159 13.098-29.257 29.257-29.257s29.257 13.098 29.257 29.257v138.973h424.228v-877.714h-187.245c-16.159 0-29.257-13.098-29.257-29.257s13.098-29.257 29.257-29.257h433.006c16.159 0 29.257 13.098 29.257 29.257s-13.098 29.257-29.257 29.257h-187.245v877.714h424.228v-138.973c0-16.159 13.098-29.257 29.257-29.257s29.257 13.098 29.257 29.257v168.23c-1.52 16.624-15.492 29.327-32.186 29.257z" />
<glyph unicode="&#xe95e;" glyph-name="text-fields" d="M106.667 789.333v-128h213.333v-512h128v512h213.333v128h-554.667zM917.333 576h-384v-128h128v-298.667h128v298.667h128v128z" />
<glyph unicode="&#xe95f;" glyph-name="twitter-circle" d="M731.556 549.794c0 5.167-0.094 10.287-0.326 15.36 22.11 16.478 41.286 37.097 56.461 60.695-20.294-9.124-42.078-15.221-64.979-17.779 23.366 14.383 41.286 37.376 49.758 64.977-21.877-13.265-46.080-22.761-71.821-27.695-20.619 23.46-50.035 38.4-82.573 38.959-62.464 1.024-113.105-51.759-113.105-117.899 0-9.402 0.977-18.526 2.931-27.322-94.067 6.050-177.43 55.017-233.193 128.837-9.728-17.687-15.313-38.353-15.313-60.51 0-41.892 19.968-79.127 50.315-101.097-18.571 0.837-35.979 6.469-51.245 15.686 0-0.512 0-1.024 0-1.536 0-58.555 39.006-107.614 90.763-119.063-9.495-2.699-19.503-4.096-29.79-4.051-7.307 0.047-14.383 0.838-21.271 2.329 14.383-47.989 56.181-83.038 105.658-84.201-38.726-32.115-87.505-51.292-140.474-51.153-9.124 0-18.153 0.604-26.997 1.722 50.084-34.351 109.521-54.364 173.427-54.364 208.014-0.049 321.774 181.014 321.774 338.104zM1024 448c0 282.765-229.237 512-512 512-282.765 0-512-229.235-512-512 0-282.763 229.235-512 512-512 282.763 0 512 229.237 512 512zM46.545 448c0 257.071 208.384 465.455 465.455 465.455s465.455-208.384 465.455-465.455-208.384-465.455-465.455-465.455-465.455 208.384-465.455 465.455z" />
<glyph unicode="&#xe960;" glyph-name="type" d="M0 960v-256h80v176h392v-864h-116v-80h312v80h-116v864h392v-176h80v256z" />
<glyph unicode="&#xe961;" glyph-name="ungroup" d="M85.333 874.667h170.667v-42.667h298.667v42.667h170.667v-170.667h-42.667v-128h85.333v42.667h170.667v-170.667h-42.667v-256h42.667v-170.667h-170.667v42.667h-256v-42.667h-170.667v170.667h42.667v85.333h-128v-42.667h-170.667v170.667h42.667v298.667h-42.667v170.667zM768 448v42.667h-85.333v-85.333h42.667v-170.667h-170.667v42.667h-85.333v-85.333h42.667v-42.667h256v42.667h42.667v256h-42.667zM554.667 704v42.667h-298.667v-42.667h-42.667v-298.667h42.667v-42.667h128v85.333h-42.667v170.667h170.667v-42.667h85.333v128h-42.667zM512 448h-42.667v-85.333h85.333v42.667h42.667v85.333h-85.333v-42.667z" />
<glyph unicode="&#xe962;" glyph-name="vector" d="M1009.503 622.445l-51.011 51.011c-8.607 8.607-20.153 13.435-32.328 13.435s-23.721-4.828-32.328-13.435l-6.927-6.927c-67.385 44.923-145.686 68.645-227.765 68.854-0.21 0-0.42 0-0.84 0-51.011 0-100.343-9.027-146.736-26.66l89.427 89.427c11.336-5.458 23.721-8.187 36.526-8.187 22.672 0 44.084 8.817 60.038 24.981 15.954 15.954 24.981 37.366 24.981 60.038s-8.817 44.084-24.981 60.038-37.366 24.981-60.038 24.981-44.084-8.817-60.038-24.981-24.981-37.366-24.981-60.038c0-12.805 2.939-25.401 8.187-36.526l-161.010-161.010-5.458 5.458c-8.607 8.607-20.153 13.435-32.328 13.435s-23.721-4.828-32.328-13.435l-51.641-51.431c-8.607-8.607-13.435-20.153-13.435-32.328s4.828-23.721 13.435-32.328l5.458-5.458-161.010-161.010c-11.336 5.458-23.721 8.187-36.526 8.187-22.672 0-44.084-8.817-60.038-24.981-33.168-33.168-33.168-87.118 0-120.075 15.954-15.954 37.366-24.981 60.038-24.981s44.084 8.817 60.038 24.981c26.030 26.030 31.698 65.076 16.584 96.564l89.427 89.427c-17.633-46.603-26.87-96.354-26.66-147.575 0.21-82.080 23.931-160.38 68.854-227.765l-8.607-8.607c-17.843-17.843-17.843-47.023 0-64.866l51.221-51.221c8.607-8.607 20.153-13.435 32.328-13.435s23.721 4.828 32.328 13.435l51.221 51.221c17.843 17.843 17.843 47.023 0 64.866l-51.221 51.221c-8.607 8.607-20.153 13.435-32.328 13.435s-23.721-4.828-32.328-13.435l-1.469-1.469c-73.683 119.446-70.534 273.948 9.866 390.245 5.248-2.099 10.706-3.149 16.584-3.149 12.175 0 23.721 4.828 32.328 13.435l51.221 51.221c13.225 13.225 16.584 32.538 10.286 48.912 116.297 80.4 270.8 83.759 390.245 9.866l-3.149-3.149c-17.843-17.843-17.843-47.023 0-64.866l51.221-51.221c8.607-8.607 20.153-13.435 32.328-13.435s23.721 4.828 32.328 13.435l51.221 51.221c17.843 17.633 17.843 46.603-0.21 64.656zM404.717 32.774l-35.897-35.897-35.897 35.897 35.897 35.897 35.897-35.897zM617.158 894.714c5.248 5.248 12.385 8.187 19.943 8.187s14.695-2.939 19.943-8.187 8.187-12.385 8.187-19.943-2.939-14.695-8.187-19.943-12.385-8.187-19.943-8.187-14.695 2.939-19.943 8.187v0 0c-5.248 5.248-8.187 12.385-8.187 19.943s2.939 14.485 8.187 19.943zM105.788 303.364c-5.248-5.248-12.385-8.187-19.943-8.187s-14.695 2.939-19.943 8.187c-11.126 11.126-11.126 28.969 0 39.885 5.248 5.248 12.385 8.187 19.943 8.187s14.695-2.939 19.943-8.187c11.126-10.916 11.126-28.969 0-39.885zM361.473 563.247l-35.897 35.897 35.897 35.897 35.687-35.687-35.687-36.107zM925.954 554.221l-35.897 35.897 35.897 35.897 35.897-35.897-35.897-35.897z" />
<glyph unicode="&#xe963;" glyph-name="view-module" d="M170.667 490.667h213.333v256h-213.333v-256zM170.667 192h213.333v256h-213.333v-256zM426.667 192h213.333v256h-213.333v-256zM682.667 192h213.333v256h-213.333v-256zM426.667 490.667h213.333v256h-213.333v-256zM682.667 746.667v-256h213.333v256h-213.333z" />
<glyph unicode="&#xe964;" glyph-name="webcam" d="M511.998 610v-80h80c0 44.112-35.89 80-80 80zM511.998 312c118 0 214 96 214 214s-96 214-214 214-214-96-214-214 96-214 214-214zM511.998 660c73.888 0 134-60.112 134-134s-60.112-134-134-134c-73.888 0-134 60.112-134 134s60.11 134 134 134zM905.156 145.046c-25.19 24.044-56.48 46.488-93.404 67.108 2.396 2.292 4.778 4.606 7.13 6.96 81.97 81.972 127.116 190.958 127.116 306.884s-45.144 224.914-127.116 306.884c-81.972 81.974-190.96 127.118-306.884 127.118s-224.916-45.144-306.886-127.116c-81.972-81.97-127.114-190.958-127.114-306.884s45.144-224.912 127.116-306.884c2.614-2.614 5.258-5.188 7.926-7.728-38.676-22.106-71.424-46.374-97.774-72.496-50.068-49.636-75.45-104.438-75.45-162.892v-40h944.37v40c-0.002 62.118-26.592 118.994-79.030 169.046zM157.998 526c0 195.196 158.804 354 354 354s354-158.804 354-354-158.804-354-354-354-354 158.804-354 354zM126.874 16c23.084 64.778 98.152 113.074 155.372 141.64 68.242-42.746 147.232-65.64 229.752-65.64 82.8 0 162.052 23.044 230.458 66.074 66.062-32.030 134.224-79.028 155.202-142.074h-770.784z" />
<glyph unicode="&#xe965;" glyph-name="layer-ellipse" d="M512 858c-277.94 0-512-179.052-512-410s234.070-410 512-410c277.94 0 512 179.052 512 410s-234.070 410-512 410z" />
<glyph unicode="&#xe966;" glyph-name="layer-ellipse-1" d="M512 858c-277.94 0-512-179.052-512-410s234.070-410 512-410c277.94 0 512 179.052 512 410s-234.070 410-512 410zM512 98c-249.234 0-452 157.010-452 350s202.766 350 452 350 452-157.010 452-350-202.766-350-452-350z" />
<glyph unicode="&#xe967;" glyph-name="undo2" d="M761.862-64c113.726 206.032 132.888 520.306-313.862 509.824v-253.824l-384 384 384 384v-248.372c534.962 13.942 594.57-472.214 313.862-775.628z" />
<glyph unicode="&#xe968;" glyph-name="redo2" d="M576 711.628v248.372l384-384-384-384v253.824c-446.75 10.482-427.588-303.792-313.86-509.824-280.712 303.414-221.1 789.57 313.86 775.628z" />
<glyph unicode="&#xe969;" glyph-name="layer-polygon" d="M970.582 701.184l-448 256c-6.57 3.754-14.592 3.754-21.162 0l-448-256c-6.656-3.798-10.752-10.88-10.752-18.518v-469.334c0-7.638 4.096-14.72 10.752-18.518l448-256c3.286-1.878 6.912-2.816 10.582-2.816s7.296 0.938 10.582 2.816l448 256c6.656 3.798 10.752 10.88 10.752 18.518v469.334c-0.002 7.638-4.098 14.72-10.754 18.518z" />
<glyph unicode="&#xe96a;" glyph-name="layer-polygon-1" d="M0 448.003l256.001 443.408h512.014l255.985-443.408-255.985-443.408h-512.014l-256.001 443.408z" />
<glyph unicode="&#xe96b;" glyph-name="layer-polygon-2" d="M1018.231 515.55l-494.268 436.634c-6.434 5.666-16.043 5.7-22.511 0.068l-495.599-432.401c-5.222-4.557-7.168-11.81-4.932-18.364l187.733-550.383c2.355-6.912 8.858-11.554 16.145-11.554h613.615c7.287 0 13.756 4.625 16.128 11.503l188.518 546.133c2.253 6.537 0.358 13.773-4.83 18.364z" />
<glyph unicode="&#xe96c;" glyph-name="layer-triangle" d="M1018.036 159.332l-489.37 613.469c-8.094 10.128-25.208 10.128-33.301 0l-489.412-613.512c-5.815-7.338-7.54-18.285-4.409-27.795 0.65-1.991 1.384-3.514 1.991-4.654 3.717-6.912 10.916-11.246 18.775-11.246h979.41c7.849 0 15.059 4.313 18.775 11.246 0.639 1.161 1.342 2.705 1.96 4.547 3.152 9.627 1.427 20.586-4.42 27.945z" />
<glyph unicode="&#xe96d;" glyph-name="layer-triangle-1" d="M1012.974 123.374l-434.865 728.207c-14.030 23.497-38.746 37.522-66.111 37.522s-52.078-14.025-66.108-37.522l-434.862-728.207c-14.395-24.1-14.713-53.066-0.857-77.482s38.891-38.995 66.965-38.995h869.73c28.072 0 53.109 14.577 66.965 38.995 13.856 24.413 13.535 53.379-0.857 77.482z" />
<glyph unicode="&#xea5d;" glyph-name="ligature" d="M768 88.178c0 0.040 0.002 0.076 0.002 0.116l-0.344 436.562-127.492-6.19h-251.93v21.494c0 81.542 5.8 162.976 17.24 194.716 7.896 21.948 22.598 41.744 43.698 58.836 20.618 16.702 41.178 25.17 61.11 25.17 16.772 0 30.702-2.878 41.402-8.554 15.026-8.562 29.716-22.964 43.67-42.818 36.95-52.504 51.99-66.454 60.094-72.376 13.804-10.094 30.512-15.212 49.658-15.212 18.668 0 34.962 6.97 48.436 20.714 13.372 13.636 20.15 30.682 20.15 50.666 0 21.452-8.916 44.204-26.502 67.622-17.184 22.888-43.708 41.742-78.834 56.032-34.322 13.964-72.94 21.044-114.778 21.044-60.716 0-116.012-14.596-164.356-43.384-48.424-28.834-85.558-68.952-110.37-119.24-22.994-46.604-21.334-134.706-22.732-214.712h-125.732v-71.402h125.598v-324.668c0-71.666-21.906-91.008-30.216-101.324-11.436-14.202-32.552-29.104-60.444-29.104h-38.654v-56.166h385.326v56.168h-6.708c-91.144 0-117.020 9.832-117.020 120.842 0 0.018 0 0.034 0 0.048l-0.038 334.206h140.204c74.404 0 91.496-3.444 95.392-4.924 4.706-1.79 10.798-4.832 13.084-9.144 0.868-1.684 5.194-25.008 5.194-82.972v-250.67c0-58.454-7.124-77.896-11.45-84.402-9.248-14.194-20.41-22.066-54.66-22.904v-56.248h293.61v55.846c-91.608 0-101.608 9.82-101.608 96.332z" />
<glyph unicode="&#xea82;" glyph-name="share2" d="M864 256c-45.16 0-85.92-18.738-115.012-48.83l-431.004 215.502c1.314 8.252 2.016 16.706 2.016 25.328s-0.702 17.076-2.016 25.326l431.004 215.502c29.092-30.090 69.852-48.828 115.012-48.828 88.366 0 160 71.634 160 160s-71.634 160-160 160-160-71.634-160-160c0-8.622 0.704-17.076 2.016-25.326l-431.004-215.504c-29.092 30.090-69.852 48.83-115.012 48.83-88.366 0-160-71.636-160-160 0-88.368 71.634-160 160-160 45.16 0 85.92 18.738 115.012 48.828l431.004-215.502c-1.312-8.25-2.016-16.704-2.016-25.326 0-88.368 71.634-160 160-160s160 71.632 160 160c0 88.364-71.634 160-160 160z" />
<glyph unicode="&#xf023;" glyph-name="lock" horiz-adv-x="658" d="M182.857 512h292.571v109.714c0 80.571-65.714 146.286-146.286 146.286s-146.286-65.714-146.286-146.286v-109.714zM658.286 457.143v-329.143c0-30.286-24.571-54.857-54.857-54.857h-548.571c-30.286 0-54.857 24.571-54.857 54.857v329.143c0 30.286 24.571 54.857 54.857 54.857h18.286v109.714c0 140.571 115.429 256 256 256s256-115.429 256-256v-109.714h18.286c30.286 0 54.857-24.571 54.857-54.857z" />
<glyph unicode="&#xf065;" glyph-name="expand" horiz-adv-x="878" d="M431.429 347.428c0-4.571-2.286-9.714-5.714-13.143l-189.714-189.714 82.286-82.286c6.857-6.857 10.857-16 10.857-25.714 0-20-16.571-36.571-36.571-36.571h-256c-20 0-36.571 16.571-36.571 36.571v256c0 20 16.571 36.571 36.571 36.571 9.714 0 18.857-4 25.714-10.857l82.286-82.286 189.714 189.714c3.429 3.429 8.571 5.714 13.143 5.714s9.714-2.286 13.143-5.714l65.143-65.143c3.429-3.429 5.714-8.571 5.714-13.143zM877.714 841.143v-256c0-20-16.571-36.571-36.571-36.571-9.714 0-18.857 4-25.714 10.857l-82.286 82.286-189.714-189.714c-3.429-3.429-8.571-5.714-13.143-5.714s-9.714 2.286-13.143 5.714l-65.143 65.143c-3.429 3.429-5.714 8.571-5.714 13.143s2.286 9.714 5.714 13.143l189.714 189.714-82.286 82.286c-6.857 6.857-10.857 16-10.857 25.714 0 20 16.571 36.571 36.571 36.571h256c20 0 36.571-16.571 36.571-36.571z" />
<glyph unicode="&#xf07d;" glyph-name="arrows-v" horiz-adv-x="439" d="M402.286 768c0-20-16.571-36.571-36.571-36.571h-73.143v-585.143h73.143c20 0 36.571-16.571 36.571-36.571 0-9.714-4-18.857-10.857-25.714l-146.286-146.286c-6.857-6.857-16-10.857-25.714-10.857s-18.857 4-25.714 10.857l-146.286 146.286c-6.857 6.857-10.857 16-10.857 25.714 0 20 16.571 36.571 36.571 36.571h73.143v585.143h-73.143c-20 0-36.571 16.571-36.571 36.571 0 9.714 4 18.857 10.857 25.714l146.286 146.286c6.857 6.857 16 10.857 25.714 10.857s18.857-4 25.714-10.857l146.286-146.286c6.857-6.857 10.857-16 10.857-25.714z" />
<glyph unicode="&#xf07e;" glyph-name="arrows-h" d="M1024 438.857c0-9.714-4-18.857-10.857-25.714l-146.286-146.286c-6.857-6.857-16-10.857-25.714-10.857-20 0-36.571 16.571-36.571 36.571v73.143h-585.143v-73.143c0-20-16.571-36.571-36.571-36.571-9.714 0-18.857 4-25.714 10.857l-146.286 146.286c-6.857 6.857-10.857 16-10.857 25.714s4 18.857 10.857 25.714l146.286 146.286c6.857 6.857 16 10.857 25.714 10.857 20 0 36.571-16.571 36.571-36.571v-73.143h585.143v73.143c0 20 16.571 36.571 36.571 36.571 9.714 0 18.857-4 25.714-10.857l146.286-146.286c6.857-6.857 10.857-16 10.857-25.714z" />
<glyph unicode="&#xf0c8;" glyph-name="layer-rectangle" horiz-adv-x="878" d="M877.714 713.143v-548.571c0-90.857-73.714-164.571-164.571-164.571h-548.571c-90.857 0-164.571 73.714-164.571 164.571v548.571c0 90.857 73.714 164.571 164.571 164.571h548.571c90.857 0 164.571-73.714 164.571-164.571z" />
<glyph unicode="&#xf10c;" glyph-name="layer-circle-o" horiz-adv-x="878" d="M438.857 749.714c-171.429 0-310.857-139.429-310.857-310.857s139.429-310.857 310.857-310.857 310.857 139.429 310.857 310.857-139.429 310.857-310.857 310.857zM877.714 438.857c0-242.286-196.571-438.857-438.857-438.857s-438.857 196.571-438.857 438.857 196.571 438.857 438.857 438.857v0c242.286 0 438.857-196.571 438.857-438.857z" />
<glyph unicode="&#xf111;" glyph-name="layer-circle" horiz-adv-x="878" d="M877.714 438.857c0-242.286-196.571-438.857-438.857-438.857s-438.857 196.571-438.857 438.857 196.571 438.857 438.857 438.857 438.857-196.571 438.857-438.857z" />
<glyph unicode="&#xf1db;" glyph-name="layer-circle-thin" horiz-adv-x="878" d="M438.857 804.571c-201.714 0-365.714-164-365.714-365.714s164-365.714 365.714-365.714 365.714 164 365.714 365.714-164 365.714-365.714 365.714zM877.714 438.857c0-242.286-196.571-438.857-438.857-438.857s-438.857 196.571-438.857 438.857 196.571 438.857 438.857 438.857v0c242.286 0 438.857-196.571 438.857-438.857z" />
<glyph unicode="&#xf247;" glyph-name="layer-group" horiz-adv-x="1170" d="M1170.286 731.428h-73.143v-585.143h73.143v-219.429h-219.429v73.143h-731.429v-73.143h-219.429v219.429h73.143v585.143h-73.143v219.429h219.429v-73.143h731.429v73.143h219.429v-219.429zM1024 877.714v-73.143h73.143v73.143h-73.143zM73.143 877.714v-73.143h73.143v73.143h-73.143zM146.286 0v73.143h-73.143v-73.143h73.143zM950.857 73.143v73.143h73.143v585.143h-73.143v73.143h-731.429v-73.143h-73.143v-585.143h73.143v-73.143h731.429zM1097.143 0v73.143h-73.143v-73.143h73.143zM731.429 585.143h219.429v-438.857h-512v146.286h-219.429v438.857h512v-146.286zM292.571 365.714h365.714v292.571h-365.714v-292.571zM877.714 219.428v292.571h-146.286v-219.429h-219.429v-73.143h365.714z" />
</font>
</defs>
</svg>
